<?xml version="1.0" standalone="no"?> <!DOCTYPE svg PUBLIC "-//W3C//DTD SVG 1.0//EN" "http://www.w3.org/TR/2001/REC-SVG-20010904/DTD/svg10.dtd" > <svg xmlns="http://www.w3.org/2000/svg" width="100%" height="100%">
<defs >
<font id="eurosti" horiz-adv-x="844" ><font-face
    font-family="Eurostile"
    units-per-em="2048"
    panose-1="2 11 5 4 2 2 2 5 2 4"
    ascent="1638"
    descent="-410"
    alphabetic="0" />
<missing-glyph horiz-adv-x="682" d="M68 0V1365H614V0H68ZM546 68V1297H136V68H546Z" />
<glyph unicode=" " glyph-name="space" horiz-adv-x="512" />
<glyph unicode="!" glyph-name="exclam" horiz-adv-x="491" d="M322 184V0H168V184H322ZM328 1365L308 377H177L160 1365H328Z" />
<glyph unicode="&quot;" glyph-name="quotedbl" horiz-adv-x="639" d="M211 819H112L93 1365H231L211 819ZM527 819H428L408 1365H546L527 819Z" />
<glyph unicode="#" glyph-name="numbersign" horiz-adv-x="1256" d="M1101 525L1085 433H849L781 0H672L741 433H437L369 0H261L330 433H94L109 525H345L394 845H158L174 937H410L477 1365H585L517 937H820L888 1365H997L929 937H1163L1147 845H913L865 525H1101ZM805
845H502L453 525H756L805 845Z" />
<glyph unicode="$" glyph-name="dollar" horiz-adv-x="1257" d="M688 1233V759Q992 759 1096 683T1201 385Q1201 164 1102 83T732 1L688 0V-154H572V0H473Q397 0 347 4Q55 27 55 425H206V400Q206 217 258 172T524 126L572 124V629Q263 629 166 700T69 998Q69 1217
170 1291T572 1365V1492H688V1365L745 1364Q996 1364 1083 1295T1170 1026L1169 983H1021L1020 1017Q1020 1157 972 1195T745 1233H688ZM572 1235H525Q332 1235 274 1194T216 1016Q216 855 275 808T536 760L572 759V1235ZM688 124Q725 118 743 116Q1054 91 1054
385Q1054 535 992 580T725 626L688 627V124Z" />
<glyph unicode="%" glyph-name="percent" horiz-adv-x="1609" d="M333 1370Q538 1370 584 1317T630 1028Q630 793 584 735T350 677Q139 677 87 736T34 1032Q34 1249 87 1309T333 1370ZM331 1298Q183 1298 151 1259T119 1041Q119 823 152 786T386 749Q545 749 545
908V1026V1137Q545 1246 511 1272T331 1298ZM1315 1365L388 0H295L1216 1365H1315ZM1274 688Q1479 688 1525 635T1571 346Q1571 110 1525 53T1291 -5Q1080 -5 1028 54T975 350Q975 567 1028 627T1274 688ZM1272 616Q1124 616 1092 577T1060 359Q1060 141 1093 104T1327
67Q1486 67 1486 226V344V455Q1486 564 1451 590T1272 616Z" />
<glyph unicode="&amp;" glyph-name="ampersand" horiz-adv-x="1434" d="M1054 603H1206L1207 567L1208 498Q1208 389 1192 304L1431 107L1347 0L1145 167Q1060 -14 687 -14Q327 -14 222 66T117 421Q117 602 165 674T355 775Q368 778 396 784Q272 888 272 1023Q272
1214 357 1283T678 1353Q908 1353 992 1285T1076 1031L1074 946H923V997Q923 1149 882 1186T672 1223Q519 1223 469 1190T419 1056Q419 942 506 874L540 846L1054 418V446V502V572V603ZM492 701Q337 667 301 622T264 417Q264 209 324 163T658 116Q985 116 1025
262L492 701Z" />
<glyph unicode="&apos;" glyph-name="quotesingle" horiz-adv-x="323" d="M211 819H112L93 1365H231L211 819Z" />
<glyph unicode="(" glyph-name="parenleft" horiz-adv-x="568" d="M465 -286V-416L427 -417Q194 -417 149 -292T103 478Q103 1123 148 1248T427 1373L465 1372V1242Q319 1242 291 1169T262 722L263 478V233Q263 -140 291 -213T465 -286Z" />
<glyph unicode=")" glyph-name="parenright" horiz-adv-x="568" d="M102 1242V1372L140 1373Q373 1373 418 1248T464 478Q464 -167 419 -292T140 -417L102 -416V-286Q247 -286 275 -213T304 233V478L305 722Q305 1096 277 1169T102 1242Z" />
<glyph unicode="*" glyph-name="asterisk" horiz-adv-x="1257" d="M994 1074L713 969L880 731L800 671L630 918L447 671L367 731L542 969L263 1074L298 1174L578 1074V1365H680V1074L958 1174L994 1074Z" />
<glyph unicode="+" glyph-name="plus" horiz-adv-x="1256" d="M558 210V617H155V747H558V1156H698V747H1101V617H698V210H558Z" />
<glyph unicode="," glyph-name="comma" horiz-adv-x="406" d="M283 184V-14Q283 -201 147 -201Q134 -201 109 -199V-123Q195 -118 195 -35L194 0H129V184H283Z" />
<glyph unicode="-" glyph-name="hyphen" horiz-adv-x="425" d="M3 562H425V432H0L3 562Z" />
<glyph unicode="." glyph-name="period" horiz-adv-x="400" d="M277 184V0H123V184H277Z" />
<glyph unicode="/" glyph-name="slash" horiz-adv-x="1323" d="M1179 1365L-21 -410H-136L1065 1365H1179Z" />
<glyph unicode="0" glyph-name="zero" horiz-adv-x="1256" d="M628 1379Q1007 1379 1085 1278T1163 683Q1163 213 1089 113Q994 -14 628 -14Q262 -14 167 113Q93 213 93 732Q93 1181 175 1280T628 1379ZM628 1249Q341 1249 291 1175T240 683Q240 264 290 190T628
116Q915 116 965 190T1016 683Q1016 1101 966 1175T628 1249Z" />
<glyph unicode="1" glyph-name="one" horiz-adv-x="1257" d="M810 1365V0H656V1250L307 863L210 955L588 1365H810Z" />
<glyph unicode="2" glyph-name="two" horiz-adv-x="1256" d="M1094 130V0H111V257Q111 473 195 540T594 643Q846 671 898 719T951 968Q951 1144 893 1196T637 1249Q391 1249 327 1207T262 1002L264 900H113L114 971Q114 1216 217 1297T632 1379Q908 1379 1003
1291T1098 948Q1098 703 1010 621T625 509Q365 483 315 437T265 176V130H1094Z" />
<glyph unicode="3" glyph-name="three" horiz-adv-x="1256" d="M500 633V764L552 763Q828 763 889 798T951 989Q951 1169 898 1209T602 1249Q379 1249 327 1210T274 1005V946H128L129 1000Q129 1234 220 1306T604 1379Q905 1379 1001 1312T1098 1033Q1098 854
1052 788T868 705V698Q1023 677 1073 614T1124 380Q1124 142 1026 64T628 -14Q305 -14 205 58T105 363V444H255V365Q255 191 314 154T649 116Q863 116 920 163T977 391Q977 542 923 587T688 633H558H500Z" />
<glyph unicode="4" glyph-name="four" horiz-adv-x="1256" d="M972 1365V445H1176V315H972V0H818V315H54V496L734 1365H972ZM818 445V1266H815L181 445H818Z" />
<glyph unicode="5" glyph-name="five" horiz-adv-x="1256" d="M1077 1365V1235H311L304 821H307Q387 934 666 934Q936 934 1034 841T1133 491Q1133 177 1040 82T641 -14Q338 -14 236 57T133 338V390H278Q278 205 335 161T629 116Q876 116 931 173T986 485Q986
691 925 747T639 804Q327 804 297 673H158V1365H1077Z" />
<glyph unicode="6" glyph-name="six" horiz-adv-x="1255" d="M1082 1020H932Q936 1057 936 1069Q936 1178 881 1213T656 1249Q398 1249 330 1205T261 996V718H264Q351 840 657 840Q932 840 1025 756T1118 424Q1118 155 1021 71T615 -14Q300 -14 201 78T102 466L99
714L103 934Q103 1204 197 1291T581 1379Q874 1379 978 1314T1083 1067L1082 1020ZM608 710Q383 710 315 665T246 472Q246 232 306 174T613 116Q853 116 912 163T971 404Q971 612 913 661T608 710Z" />
<glyph unicode="7" glyph-name="seven" horiz-adv-x="1256" d="M1093 1365V1169L432 0H249L965 1235H98V1365H1093Z" />
<glyph unicode="8" glyph-name="eight" horiz-adv-x="1257" d="M890 709V706Q1034 677 1078 617T1123 391Q1123 141 1029 64T632 -14Q299 -14 202 57T104 373Q104 552 149 616T341 708V711Q206 740 164 800T122 1027Q122 1244 214 1311T600 1379Q924 1379 1016
1314T1108 1016Q1108 860 1065 799T890 709ZM602 1249Q369 1249 319 1213T269 1007Q269 842 331 806T672 769Q858 769 909 815T961 1026Q961 1179 905 1214T602 1249ZM604 639Q367 639 309 597T251 383Q251 220 293 170T474 119L667 116L795 124Q906 138 941 192T976
404Q976 557 911 598T604 639Z" />
<glyph unicode="9" glyph-name="nine" horiz-adv-x="1257" d="M104 348H249L248 308Q248 182 308 149T594 116Q852 116 909 166T966 446V651H963Q883 529 553 529Q293 529 203 612T113 934Q113 1208 208 1293T607 1379Q919 1379 1020 1290T1121 925L1125 558L1122
417Q1122 155 1023 71T616 -14Q313 -14 207 48T101 291Q101 307 104 348ZM593 1249Q370 1249 315 1201T260 955Q260 762 314 711T572 659Q837 659 901 700T965 913Q965 1142 906 1195T593 1249Z" />
<glyph unicode=":" glyph-name="colon" horiz-adv-x="400" d="M277 184V0H123V184H277ZM277 956V772H123V956H277Z" />
<glyph unicode=";" glyph-name="semicolon" horiz-adv-x="365" d="M242 184V-14Q242 -201 106 -201Q93 -201 68 -199V-123Q154 -118 154 -35L153 0H88V184H242ZM232 956V772H78V956H232Z" />
<glyph unicode="&lt;" glyph-name="less" horiz-adv-x="887" d="M887 1163V1023L150 689L887 354V215L0 628V750L887 1163Z" />
<glyph unicode="=" glyph-name="equal" horiz-adv-x="1256" d="M155 918H1101V788H155V918ZM155 577H1101V447H155V577Z" />
<glyph unicode="&gt;" glyph-name="greater" horiz-adv-x="887" d="M0 215V355L737 689L0 1023V1162L887 749V627L0 215Z" />
<glyph unicode="?" glyph-name="question" horiz-adv-x="1064" d="M541 184V0H387V184H541ZM546 394H395L396 424Q396 561 434 615T605 719L688 751Q814 799 814 993Q814 1162 768 1205T538 1249Q350 1249 302 1203T253 977L254 938H109L110 983Q110 1227 196
1303T561 1379Q795 1379 878 1302T961 1007Q961 695 768 626L684 596Q547 547 547 428L546 394Z" />
<glyph unicode="@" glyph-name="at" horiz-adv-x="1290" d="M837 969H939V498L941 455Q941 347 1024 347Q1123 347 1123 698Q1123 994 1056 1056T672 1119Q318 1119 243 1045T167 625Q167 257 250 175T711 93Q967 93 1011 175L1079 126Q1019 21 694 21Q299 21
191 127T82 623Q82 1004 185 1106T672 1208Q1011 1208 1109 1123T1208 744Q1208 476 1169 376T1026 275Q881 275 858 385H854Q806 269 611 269Q461 269 405 345T349 625Q349 823 405 896T614 969Q791 969 834 875H837V969ZM643 897Q521 897 486 847T451 622Q451
450 486 396T633 341Q768 341 802 397T836 680Q836 897 643 897Z" />
<glyph unicode="A" glyph-name="A" horiz-adv-x="1246" d="M969 289H278L173 0H10L510 1365H726L1236 0H1075L969 289ZM924 405L621 1239L322 405H924Z" />
<glyph unicode="B" glyph-name="B" horiz-adv-x="1264" d="M130 0V1365H734Q985 1365 1062 1296T1140 1004Q1140 777 965 717V714Q1182 662 1182 393Q1182 176 1097 88T799 0H130ZM284 765H689Q882 765 937 811T993 1016Q993 1154 945 1194T731 1235H284V765ZM284
130H611L750 131Q926 131 980 176T1035 369Q1035 552 980 593T681 635H284V130Z" />
<glyph unicode="C" glyph-name="C" horiz-adv-x="1222" d="M1025 456H1178V404Q1178 125 1083 56T605 -14Q262 -14 169 108T76 685Q76 1040 97 1131T217 1295Q333 1379 718 1379Q979 1379 1069 1298T1160 985L1161 948H1008L1007 990Q1007 1155 954 1202T712 1249Q382
1249 309 1194T236 889Q236 314 285 215T620 116Q892 116 959 159T1027 375L1025 456Z" />
<glyph unicode="D" glyph-name="D" horiz-adv-x="1338" d="M130 0V1365H762Q1055 1365 1159 1236T1263 742Q1263 298 1171 149T801 0H130ZM284 130H729Q974 130 1045 228T1116 665Q1116 1037 1055 1136T760 1235H284V130Z" />
<glyph unicode="E" glyph-name="E" horiz-adv-x="1020" d="M229 1235V770H922V640H229V130H952V0H75V1365H952V1235H229Z" />
<glyph unicode="F" glyph-name="F" horiz-adv-x="1001" d="M284 1235V758H949V628H284V0H130V1365H967V1235H284Z" />
<glyph unicode="G" glyph-name="G" horiz-adv-x="1268" d="M617 679H1202Q1206 626 1206 530Q1206 161 1116 74T643 -14Q282 -14 179 89T76 554L75 755L76 876Q76 1179 190 1279T652 1379Q1000 1379 1101 1314T1202 1021V969H1051V1003Q1051 1170 983 1209T625
1249Q358 1249 291 1186T224 868L222 687L223 492Q223 234 297 175T695 116Q942 116 1000 172T1059 465Q1059 484 1051 549H617V679Z" />
<glyph unicode="H" glyph-name="H" horiz-adv-x="1365" d="M1236 1365V0H1082V633H284V0H130V1365H284V763H1082V1365H1236Z" />
<glyph unicode="I" glyph-name="I" horiz-adv-x="417" d="M284 1365V0H130V1365H284Z" />
<glyph unicode="J" glyph-name="J" horiz-adv-x="1028" d="M898 1365V402Q898 161 810 74T480 -14Q235 -14 144 60T53 335Q53 428 56 497H207V472V367Q207 200 252 158T474 116Q649 116 696 171T744 427V1365H898Z" />
<glyph unicode="K" glyph-name="K" horiz-adv-x="1235" d="M284 1365V769H419L979 1365H1178L554 707L1254 0H1043L419 639H284V0H130V1365H284Z" />
<glyph unicode="L" glyph-name="L" horiz-adv-x="993" d="M284 1365V143H986V0H130V1365H284Z" />
<glyph unicode="M" glyph-name="M" horiz-adv-x="1757" d="M1628 1365V0H1474V1092V1174L1475 1215L1476 1256H1472L1460 1224Q1451 1200 1448 1193L1422 1129L957 0H803L337 1116L310 1179L298 1211Q293 1222 286 1242H282L283 1205L284 1167V1092V0H130V1365H397L761
482L819 339L848 268L876 197H880L908 268Q929 319 936 339L995 481L1357 1365H1628Z" />
<glyph unicode="N" glyph-name="N" horiz-adv-x="1426" d="M1296 1365V0H1043L471 929L378 1082L332 1158L286 1234H282L283 1183L284 1131V1029V0H130V1365H382L881 551L1011 337L1076 231L1140 124H1144L1143 175L1142 227V329V1365H1296Z" />
<glyph unicode="O" glyph-name="O" horiz-adv-x="1256" d="M629 1379Q1016 1379 1113 1266T1210 701Q1210 214 1117 100T629 -14Q236 -14 142 99T47 683V779L49 908Q49 1180 171 1279T629 1379ZM628 1249Q304 1249 249 1177T194 683Q194 260 249 188T628 116Q953
116 1008 188T1063 683V772L1062 901Q1062 1127 986 1188T628 1249Z" />
<glyph unicode="P" glyph-name="P" horiz-adv-x="1208" d="M130 0V1365H703H755Q986 1365 1070 1276T1154 943Q1154 709 1067 624T738 539L678 538H284V0H130ZM284 668H649Q878 668 942 715T1007 931Q1007 1129 964 1181T757 1234L698 1235H284V668Z" />
<glyph unicode="Q" glyph-name="Q" horiz-adv-x="1342" d="M1322 167L1259 62L1137 141Q1027 -14 630 -14Q225 -14 137 100T48 738Q48 1156 149 1267T630 1379Q1017 1379 1114 1266T1211 701Q1211 362 1186 257L1322 167ZM606 489L677 594L1050 347Q1064 420 1064
605Q1064 1099 1014 1174T629 1249Q305 1249 250 1177T195 683Q195 260 250 188T627 116Q947 116 1015 221L606 489Z" />
<glyph unicode="R" glyph-name="R" horiz-adv-x="1276" d="M130 0V1365H780Q1000 1365 1090 1278T1180 976Q1180 787 1131 713T944 616V613Q1161 597 1161 349V0H1007V314Q1007 553 800 553H749H284V0H130ZM284 683H729Q905 683 969 736T1033 938Q1033 1123 986
1179T782 1235H284V683Z" />
<glyph unicode="S" glyph-name="S" horiz-adv-x="1146" d="M1066 995H913Q913 1160 858 1204T599 1249Q357 1249 287 1207T217 1017Q217 852 272 816T599 767Q918 753 1004 686T1091 386Q1091 134 992 60T552 -14Q257 -14 160 60T62 361L61 422H214V388Q214 205
270 161T557 116Q822 116 883 160T944 398Q944 523 903 564T729 614L569 622L417 630Q70 654 70 990Q70 1223 171 1301T574 1379Q880 1379 973 1307T1066 995Z" />
<glyph unicode="T" glyph-name="T" horiz-adv-x="1054" d="M606 1222V0H452V1222H7V1365H1047V1222H606Z" />
<glyph unicode="U" glyph-name="U" horiz-adv-x="1341" d="M1058 1365H1212V409Q1212 149 1108 68T669 -14Q356 -14 244 64T131 363V409V1365H285V409Q285 215 348 166T658 116Q926 116 992 164T1058 409V1365Z" />
<glyph unicode="V" glyph-name="V" horiz-adv-x="1171" d="M1016 1365H1181L698 0H478L-10 1365H154L518 334L554 229Q574 168 587 124H591Q621 225 658 332L1016 1365Z" />
<glyph unicode="W" glyph-name="W" horiz-adv-x="2045" d="M2041 1365L1611 0H1377L1090 983L1054 1106Q1051 1116 1037 1167L1019 1229H1016L999 1167L981 1105L944 981L652 0H422L3 1365H161L455 384L495 251Q500 235 515 185L534 118H537L556 185L575 251L614
383L904 1365H1132L1420 382L1459 251L1477 184L1496 118H1499L1519 185L1539 252L1580 386L1880 1365H2041Z" />
<glyph unicode="X" glyph-name="X" horiz-adv-x="1190" d="M1167 1365L731 706L1200 0H1018L702 478L652 553Q648 559 629 590L605 628H601L577 589Q557 560 552 551L500 475L179 0H-10L478 706L29 1365H215L518 910L560 846Q568 834 581 814L601 782H605L625
813Q641 840 645 845L686 908L985 1365H1167Z" />
<glyph unicode="Y" glyph-name="Y" horiz-adv-x="1152" d="M1163 1365L647 570V0H493V570L-10 1365H169L462 904L518 815Q529 799 546 771L573 726H577Q595 756 604 771L631 815L688 904L980 1365H1163Z" />
<glyph unicode="Z" glyph-name="Z" horiz-adv-x="1161" d="M1095 1365V1235L236 133V130H1113V0H48V133L905 1232V1235H73V1365H1095Z" />
<glyph unicode="[" glyph-name="bracketleft" horiz-adv-x="567" d="M113 1365H462V1249H267V-294H462V-410H113V1365Z" />
<glyph unicode="\" glyph-name="backslash" horiz-adv-x="1323" d="M-136 1365H-21L1179 -410H1065L-136 1365Z" />
<glyph unicode="]" glyph-name="bracketright" horiz-adv-x="567" d="M454 -410H105V-294H300V1249H105V1365H454V-410Z" />
<glyph unicode="^" glyph-name="asciicircum" horiz-adv-x="914" d="M152 752H0L365 1369H549L914 752H761L455 1258L152 752Z" />
<glyph unicode="_" glyph-name="underscore" horiz-adv-x="1024" d="M0 -136H1024V-266H0V-136Z" />
<glyph unicode="`" glyph-name="grave" horiz-adv-x="1024" d="M358 1351L629 1146L580 1072L286 1253L358 1351Z" />
<glyph unicode="a" glyph-name="a" horiz-adv-x="1044" d="M269 688H130Q130 855 205 912T501 970Q740 970 824 900T908 631V0H768L779 103L776 104Q696 -14 451 -14Q89 -14 89 277Q89 450 170 516T463 582Q715 582 765 483L768 484V600Q768 764 723 812T526 861Q268
861 268 716Q268 709 269 688ZM494 473Q333 473 285 439T236 293Q236 177 284 140T479 102Q775 102 775 282Q775 395 718 434T494 473Z" />
<glyph unicode="b" glyph-name="b" horiz-adv-x="1047" d="M123 0V1365H263V834L266 831Q314 970 580 970Q790 970 870 861T950 466Q950 195 866 91T560 -14Q335 -14 260 119L256 118L263 0H123ZM544 854Q379 854 323 784T267 503Q267 244 317 173T550 102Q704
102 753 174T803 472Q803 709 754 781T544 854Z" />
<glyph unicode="c" glyph-name="c" horiz-adv-x="993" d="M780 345H920L921 293Q921 -14 519 -14Q261 -14 178 83T95 483Q95 767 179 868T501 970Q734 970 819 902T904 644H764V669Q764 780 709 817T490 854Q332 854 287 784T242 470Q242 232 293 167T534 102Q694
102 737 144T780 345Z" />
<glyph unicode="d" glyph-name="d" horiz-adv-x="1045" d="M922 1365V0H782L789 124L785 125Q719 -14 478 -14Q258 -14 178 93T97 492Q97 761 178 865T468 970Q729 970 779 835L782 837V1365H922ZM501 854Q346 854 295 783T244 493Q244 253 294 178T504 102Q677
102 729 177T781 506Q781 711 724 782T501 854Z" />
<glyph unicode="e" glyph-name="e" horiz-adv-x="1029" d="M788 289H931L932 254Q932 105 842 46T524 -14Q260 -14 178 82T95 488Q95 774 178 872T503 970Q767 970 849 885T931 527V452H243Q243 226 291 164T518 102Q687 102 737 131T788 259V289ZM788 561L787
606Q787 761 736 807T516 854Q346 854 296 800T245 561H788Z" />
<glyph unicode="f" glyph-name="f" horiz-adv-x="543" d="M160 0V840H14V956H160V1098Q160 1379 449 1379Q492 1379 550 1372V1256Q482 1263 451 1263Q300 1263 300 1111V956H550V840H300V0H160Z" />
<glyph unicode="g" glyph-name="g" horiz-adv-x="1045" d="M923 956V-62Q923 -270 833 -348T503 -426Q289 -426 211 -360T133 -113H268Q268 -236 313 -273T513 -310Q673 -310 728 -262T783 -74V118L780 119Q726 -14 468 -14Q256 -14 176 90T96 472Q96 759 177
864T480 970Q715 970 787 826L790 827L783 956H923ZM506 854Q341 854 292 785T243 480Q243 243 292 173T506 102Q673 102 726 179T779 502Q779 718 726 786T506 854Z" />
<glyph unicode="h" glyph-name="h" horiz-adv-x="1053" d="M263 1365V838L266 836Q319 970 562 970Q922 970 922 650V611V0H782V611V638Q782 854 561 854Q383 854 323 791T263 538V0H123V1365H263Z" />
<glyph unicode="i" glyph-name="i" horiz-adv-x="385" d="M263 1365V1208H123V1365H263ZM263 956V0H123V956H263Z" />
<glyph unicode="j" glyph-name="j" horiz-adv-x="381" d="M254 1365V1208H114V1365H254ZM254 956V-88V-129Q254 -366 57 -366Q28 -366 -10 -359V-260Q2 -258 6 -258L24 -257L82 -238Q114 -211 114 -88V956H254Z" />
<glyph unicode="k" glyph-name="k" horiz-adv-x="881" d="M263 1365V572H327L665 956H841L432 517L915 0H726L320 463H263V0H123V1365H263Z" />
<glyph unicode="l" glyph-name="l" horiz-adv-x="386" d="M263 1365V0H123V1365H263Z" />
<glyph unicode="m" glyph-name="m" horiz-adv-x="1691" d="M123 956H263L260 812L263 809Q344 970 575 970Q818 970 870 809H874Q964 970 1203 970Q1541 970 1541 625V0H1401V638Q1401 764 1356 809T1186 854Q1020 854 961 792T902 553V0H762V625L760 669Q760
854 549 854Q263 854 263 543V0H123V956Z" />
<glyph unicode="n" glyph-name="n" horiz-adv-x="1056" d="M123 956H258L254 826L258 823Q322 970 576 970Q781 970 853 898T926 622V0H786V610V646Q786 769 739 811T558 854Q263 854 263 575V0H123V956Z" />
<glyph unicode="o" glyph-name="o" horiz-adv-x="1036" d="M518 970Q783 970 862 878T941 478Q941 170 862 78T518 -14Q254 -14 175 78T96 478Q96 786 175 878T518 970ZM518 854Q332 854 288 794T243 478Q243 223 287 163T518 102Q705 102 749 162T794 478Q794
733 750 793T518 854Z" />
<glyph unicode="p" glyph-name="p" horiz-adv-x="1045" d="M123 956H263L256 835L260 832Q333 970 574 970Q787 970 867 862T947 464Q947 195 866 91T578 -14Q342 -14 266 113H263V-410H123V956ZM535 854Q367 854 316 782T265 470Q265 249 320 176T541 102Q699
102 749 173T800 466Q800 710 751 782T535 854Z" />
<glyph unicode="q" glyph-name="q" horiz-adv-x="1044" d="M922 956V-410H782V116L779 119Q716 -14 465 -14Q258 -14 177 94T96 479Q96 756 178 863T473 970Q707 970 786 835L789 838L782 956H922ZM495 854Q340 854 292 779T243 465Q243 241 293 172T503 102Q666
102 722 173T778 455Q778 709 727 781T495 854Z" />
<glyph unicode="r" glyph-name="r" horiz-adv-x="816" d="M137 956H277L263 846L266 843Q349 978 540 978Q804 978 804 706L803 640H665L668 664Q671 702 671 715Q671 862 511 862Q277 862 277 573V0H137V956Z" />
<glyph unicode="s" glyph-name="s" horiz-adv-x="970" d="M864 706H724Q724 806 684 830T475 854Q319 854 277 829T235 706Q235 559 376 552L489 546L632 539Q892 526 892 267Q892 106 806 46T491 -14Q256 -14 168 43T79 252L80 304H225L226 259Q226 165 274 134T463
102Q636 102 690 135T745 273Q745 424 608 424Q289 424 189 478T88 702Q88 863 167 916T484 970Q864 970 864 741V706Z" />
<glyph unicode="t" glyph-name="t" horiz-adv-x="667" d="M630 956V840H262V255Q262 102 398 102Q533 102 533 239L534 286L536 339H666L667 268Q667 -14 399 -14Q122 -14 122 221V255V840H-10V956H122V1186H262V956H630Z" />
<glyph unicode="u" glyph-name="u" horiz-adv-x="1039" d="M903 956V0H763L773 125L770 128Q697 -14 458 -14Q123 -14 123 320V956H263V320Q263 190 306 146T475 102Q640 102 701 167T763 408V956H903Z" />
<glyph unicode="v" glyph-name="v" horiz-adv-x="824" d="M831 956L511 0H310L-7 956H137L306 436L359 273L384 191L410 109H414L438 190L462 272L513 434L675 956H831Z" />
<glyph unicode="w" glyph-name="w" horiz-adv-x="1373" d="M1367 956L1099 0H891L763 531L724 693L706 774L687 855H684L665 774L646 693L607 531L478 0H266L7 956H154L289 427L331 261L351 178L371 95H375L394 178L414 261L454 426L585 956H789L919 425L959 260L978
178L997 95H1000L1021 178L1041 261L1083 427L1217 956H1367Z" />
<glyph unicode="x" glyph-name="x" horiz-adv-x="827" d="M797 956L487 506L834 0H667L414 386L160 0H-7L340 500L29 956H197L414 607L630 956H797Z" />
<glyph unicode="y" glyph-name="y" horiz-adv-x="796" d="M802 956L531 -55Q474 -269 405 -349T206 -429Q180 -429 139 -422V-306Q168 -312 188 -313Q301 -319 356 -130L383 -36Q384 -31 392 0H339L-7 956H142L289 530L363 318L399 211L436 105H440L466 211L491
318L545 530L653 956H802Z" />
<glyph unicode="z" glyph-name="z" horiz-adv-x="826" d="M92 956H781V820L211 116H781V0H44V133L616 840H92V956Z" />
<glyph unicode="{" glyph-name="braceleft" horiz-adv-x="783" d="M300 479Q428 418 428 241V-100Q428 -297 599 -297H613V-410H525Q288 -410 288 -103V235Q288 387 171 422V535Q288 569 288 723V1060Q288 1365 525 1365H613V1254Q428 1254 428 1057V716Q428 539
300 479Z" />
<glyph unicode="|" glyph-name="bar" horiz-adv-x="140" d="M0 1365H140V-341H0V1365Z" />
<glyph unicode="}" glyph-name="braceright" horiz-adv-x="783" d="M488 477Q360 537 360 714V1055Q360 1252 185 1252H171V1365H261Q500 1365 500 1058V720Q500 568 613 533V420Q500 384 500 233V-105Q500 -410 261 -410H171V-299Q360 -299 360 -102V239Q360
416 488 477Z" />
<glyph unicode="~" glyph-name="asciitilde" horiz-adv-x="984" d="M84 1196L0 1250Q115 1482 279 1482Q356 1482 509 1408Q650 1339 711 1339Q813 1339 898 1486L984 1435Q870 1209 698 1209Q623 1209 524 1256L406 1311Q321 1352 267 1352Q167 1352 84 1196Z" />
</font>
</defs>
</svg>
