<?xml version="1.0" standalone="no"?> <!DOCTYPE svg PUBLIC "-//W3C//DTD SVG 1.0//EN" "http://www.w3.org/TR/2001/REC-SVG-20010904/DTD/svg10.dtd" > <svg xmlns="http://www.w3.org/2000/svg" width="100%" height="100%">
<defs >
<font id="eurostib" horiz-adv-x="882" ><font-face
    font-family="Eurostile"
    units-per-em="2048"
    panose-1="2 11 7 4 2 2 2 5 2 4"
    ascent="1638"
    descent="-410"
    alphabetic="0" />
<missing-glyph horiz-adv-x="682" d="M68 0V1365H614V0H68ZM546 68V1297H136V68H546Z" />
<glyph unicode=" " glyph-name="space" horiz-adv-x="512" />
<glyph unicode="!" glyph-name="exclam" horiz-adv-x="563" d="M388 246V0H159V246H388ZM399 1365L380 456H160L144 1365H399Z" />
<glyph unicode="&quot;" glyph-name="quotedbl" horiz-adv-x="758" d="M276 819H122L91 1365H307L276 819ZM637 819H482L452 1365H668L637 819Z" />
<glyph unicode="#" glyph-name="numbersign" horiz-adv-x="1285" d="M1155 552L1130 392H908L846 0H671L733 392H460L398 0H225L287 392H65L89 552H312L355 816H133L158 976H380L442 1365H614L553 976H826L887 1365H1062L1000 976H1221L1197 816H976L932 552H1155ZM801
816H528L485 552H757L801 816Z" />
<glyph unicode="$" glyph-name="dollar" horiz-adv-x="1286" d="M724 1162V802L778 800Q1049 785 1144 706T1239 414Q1239 186 1136 94T774 2L724 1V-160H560V1L514 2Q257 2 153 90T48 396L49 445H292V420Q292 287 334 249T524 210L560 209V599Q273 599 168 682T63
993Q63 1214 168 1295T560 1377V1517H724V1377Q997 1377 1097 1299T1198 1009V976H963L962 1002Q962 1162 762 1162H724ZM560 1163L525 1162Q309 1162 309 991Q309 812 524 812Q526 812 560 810V1163ZM724 209H759Q993 209 993 410Q993 520 941 555T724 590V209Z"
/>
<glyph unicode="%" glyph-name="percent" horiz-adv-x="1633" d="M343 1369Q537 1369 585 1314T633 1038Q633 801 585 740T351 679Q157 679 102 741T47 1023Q47 1246 99 1307T343 1369ZM339 1253Q227 1253 206 1227T184 1063Q184 853 203 824T360 795Q494 795
494 932L496 1033V1123Q496 1209 470 1231T339 1253ZM1313 1365L451 0H320L1179 1365H1313ZM1292 686Q1486 686 1534 631T1582 355Q1582 118 1534 57T1300 -4Q1106 -4 1051 58T996 339Q996 562 1049 624T1292 686ZM1288 570Q1176 570 1155 544T1133 381Q1133 170
1152 141T1309 112Q1443 112 1443 249L1445 350V440Q1445 526 1419 548T1288 570Z" />
<glyph unicode="&amp;" glyph-name="ampersand" horiz-adv-x="1421" d="M1017 658H1239V614L1237 495Q1237 409 1212 312L1408 146L1285 -3L1121 135Q1030 -12 701 -12Q335 -12 222 72T108 428Q108 735 368 773Q256 871 256 1019Q256 1208 348 1280T683 1352Q937
1352 1029 1279T1122 1002L1121 931H891V971Q891 1094 858 1125T694 1157Q502 1157 502 1014Q502 917 602 832L1017 476Q1027 528 1027 573Q1027 610 1017 658ZM505 653Q354 631 354 427Q354 269 405 226T643 183Q804 183 851 197T953 279L505 653Z" />
<glyph unicode="&apos;" glyph-name="quotesingle" horiz-adv-x="398" d="M276 819H122L91 1365H307L276 819Z" />
<glyph unicode="(" glyph-name="parenleft" horiz-adv-x="634" d="M533 -200V-413Q225 -413 164 -286T102 478Q102 1115 163 1241T533 1368V1155Q408 1155 383 1091T358 702V478V253Q358 -71 383 -135T533 -200Z" />
<glyph unicode=")" glyph-name="parenright" horiz-adv-x="634" d="M101 1155V1368Q409 1368 470 1242T532 478Q532 -159 471 -286T101 -413V-200Q272 -200 272 -15L276 253V478V702L272 970Q272 1155 101 1155Z" />
<glyph unicode="*" glyph-name="asterisk" horiz-adv-x="1281" d="M1008 1050L754 962L906 746L799 665L645 891L478 665L370 746L528 963L273 1058L319 1188L574 1096V1365H707V1096L964 1188L1008 1050Z" />
<glyph unicode="+" glyph-name="plus" horiz-adv-x="1286" d="M526 175V576H135V789H526V1190H755V789H1151V576H755V175H526Z" />
<glyph unicode="," glyph-name="comma" horiz-adv-x="459" d="M340 246V8Q340 -231 134 -231Q123 -231 92 -229V-122Q202 -122 202 -30L201 0H111V246H340Z" />
<glyph unicode="-" glyph-name="hyphen" horiz-adv-x="457" d="M0 637H457V419H0V637Z" />
<glyph unicode="." glyph-name="period" horiz-adv-x="434" d="M332 246V0H103V246H332Z" />
<glyph unicode="/" glyph-name="slash" horiz-adv-x="1243" d="M1116 1365L64 -410H-108L944 1365H1116Z" />
<glyph unicode="0" glyph-name="zero" horiz-adv-x="1285" d="M642 1376Q1018 1376 1106 1266T1194 683Q1194 210 1106 100T642 -11Q266 -11 178 100T90 683Q90 1155 178 1265T642 1376ZM622 1154Q443 1154 396 1103T348 861L346 682L348 516Q348 309 396 260T645
211Q854 211 896 280T938 691Q938 1036 898 1095T622 1154Z" />
<glyph unicode="1" glyph-name="one" horiz-adv-x="1286" d="M905 1365V0H646V1139L291 787L137 954L578 1365H905Z" />
<glyph unicode="2" glyph-name="two" horiz-adv-x="1285" d="M1149 205V0H117V278Q117 494 194 565T563 688Q804 731 848 766T893 950Q893 1092 849 1130T637 1168Q465 1168 420 1130T375 942V884H121V941Q121 1198 227 1287T638 1376Q936 1376 1042 1286T1149
944Q1149 706 1068 626T695 491Q454 447 415 417T376 242V205H1149Z" />
<glyph unicode="3" glyph-name="three" horiz-adv-x="1285" d="M529 597V798L573 797Q791 797 838 823T886 970Q886 1105 844 1136T619 1168Q454 1168 411 1134T368 965V925H118V976Q118 1215 219 1295T618 1376Q918 1376 1030 1300T1142 1019Q1142 736 915 701V694Q1162
667 1162 396Q1162 155 1053 72T628 -11Q318 -11 207 72T95 386L96 462H349Q352 417 352 408Q352 267 399 232T638 197Q813 197 859 235T906 417Q906 527 864 562T687 597H574H529Z" />
<glyph unicode="4" glyph-name="four" horiz-adv-x="1285" d="M1049 1365V493H1206V293H1049V0H790V293H53V584L649 1365H1049ZM790 493V1169H782L265 493H790Z" />
<glyph unicode="5" glyph-name="five" horiz-adv-x="1285" d="M1109 1365V1160H392L389 831H394Q470 937 706 937Q975 937 1071 838T1168 465Q1168 184 1060 87T642 -11Q336 -11 230 72T124 394H377Q384 262 427 230T641 197Q830 197 871 240T912 485Q912 642
866 685T653 729Q410 729 386 634H152V1365H1109Z" />
<glyph unicode="6" glyph-name="six" horiz-adv-x="1286" d="M1154 982H897L898 1013Q898 1109 855 1138T673 1168Q471 1168 421 1130T371 936V701H376Q443 833 711 833Q974 833 1070 750T1166 437Q1166 172 1063 80T663 -12Q297 -12 203 96T109 626Q109 1146
193 1261T662 1376Q942 1376 1048 1299T1154 1018V982ZM651 625Q468 625 417 593T365 445Q365 278 411 237T643 196Q821 196 865 232T910 416Q910 555 867 590T651 625Z" />
<glyph unicode="7" glyph-name="seven" horiz-adv-x="1285" d="M1110 1365V1116L560 0H271L851 1147H96V1365H1110Z" />
<glyph unicode="8" glyph-name="eight" horiz-adv-x="1286" d="M932 705V700Q1170 659 1170 377Q1170 146 1062 68T635 -11Q320 -11 212 67T103 373Q103 660 342 701V706Q211 738 167 799T122 1011Q122 1228 225 1302T631 1376Q944 1376 1048 1304T1153 1013Q1153
760 932 705ZM632 1168Q460 1168 419 1139T378 988Q378 859 422 830T662 801Q818 801 857 834T897 1001Q897 1112 853 1140T632 1168ZM632 599Q448 599 404 567T359 398Q359 260 404 229T651 197Q823 197 868 234T914 412Q914 535 866 567T632 599Z" />
<glyph unicode="9" glyph-name="nine" horiz-adv-x="1286" d="M97 385H349Q349 255 391 226T615 196Q812 196 854 237T897 469V668H892Q827 534 578 534Q298 534 203 612T107 921Q107 1190 207 1283T600 1376Q979 1376 1068 1268T1158 702Q1158 209 1073 99T606
-12Q312 -12 205 62T97 338V385ZM610 1168Q449 1168 406 1131T363 953Q363 812 406 777T625 742Q810 742 856 775T902 942Q902 1094 854 1131T610 1168Z" />
<glyph unicode=":" glyph-name="colon" horiz-adv-x="434" d="M332 246V0H103V246H332ZM332 956V710H103V956H332Z" />
<glyph unicode=";" glyph-name="semicolon" horiz-adv-x="430" d="M317 246V8Q317 -231 111 -231Q100 -231 69 -229V-122Q179 -122 179 -30L178 0H88V246H317ZM312 956V710H83V956H312Z" />
<glyph unicode="&lt;" glyph-name="less" horiz-adv-x="887" d="M887 1232V1005L242 694L887 383V157L0 598V791L887 1232Z" />
<glyph unicode="=" glyph-name="equal" horiz-adv-x="1286" d="M135 982H1151V769H135V982ZM135 588H1151V383H135V588Z" />
<glyph unicode="&gt;" glyph-name="greater" horiz-adv-x="887" d="M0 156V383L645 694L0 1006V1231L887 790V597L0 156Z" />
<glyph unicode="?" glyph-name="question" horiz-adv-x="1083" d="M601 246V0H372V246H601ZM604 438H372Q372 608 405 662T578 775L667 813Q778 859 778 999Q778 1115 737 1148T551 1182Q416 1182 371 1147T326 1005L327 953H100L101 1003Q101 1224 196 1300T567
1377Q811 1377 900 1298T990 1005Q990 836 946 769T751 637Q604 575 604 470V438Z" />
<glyph unicode="@" glyph-name="at" horiz-adv-x="1429" d="M862 1007H1026V572L1028 537Q1032 443 1108 443Q1210 443 1210 763Q1210 1045 1148 1099T760 1153Q381 1153 300 1082T218 682Q218 309 294 227T713 144Q1047 144 1082 221L1200 166Q1129 18 682 18Q312
18 204 134T95 644Q95 1058 210 1168T758 1279Q1132 1279 1232 1190T1333 767Q1333 506 1282 412T1090 317Q897 317 884 435H879Q841 313 654 313Q507 313 453 385T398 651Q398 867 449 939T654 1011Q814 1011 857 913H862V1007ZM707 885Q614 885 585 846T555 681Q555
523 582 481T712 439Q815 439 840 481T865 700Q865 885 707 885Z" />
<glyph unicode="A" glyph-name="A" horiz-adv-x="1300" d="M946 262H357L272 0H-2L452 1365H841L1302 0H1033L946 262ZM886 453L650 1164L418 453H886Z" />
<glyph unicode="B" glyph-name="B" horiz-adv-x="1299" d="M120 0V1365H791Q1027 1365 1112 1290T1198 1005Q1198 752 997 707V702Q1231 666 1231 377Q1231 168 1141 84T827 0H120ZM379 792H696Q850 792 892 826T935 983Q935 1147 749 1147H379V792ZM379 218H663L754
220Q885 220 926 257T968 413Q968 537 925 569T710 601H379V218Z" />
<glyph unicode="C" glyph-name="C" horiz-adv-x="1266" d="M963 487H1223V440Q1223 155 1119 72T659 -12Q255 -12 162 120T69 826Q69 1164 195 1270T722 1377Q1014 1377 1112 1290T1210 942L1211 911H951V946Q951 1080 901 1117T670 1155Q429 1155 381 1096T332
746Q332 354 375 282T657 210Q850 210 907 250T965 426L963 487Z" />
<glyph unicode="D" glyph-name="D" horiz-adv-x="1375" d="M120 0V1365H791Q1077 1365 1191 1240T1306 802Q1306 291 1214 146T799 0H120ZM379 218H748Q934 218 988 303T1043 681Q1043 983 994 1065T764 1147H379V218Z" />
<glyph unicode="E" glyph-name="E" horiz-adv-x="1106" d="M352 1147V795H992V604H352V218H1033V0H93V1365H1027V1147H352Z" />
<glyph unicode="F" glyph-name="F" horiz-adv-x="1062" d="M379 1147V779H991V561H379V0H120V1365H1024V1147H379Z" />
<glyph unicode="G" glyph-name="G" horiz-adv-x="1324" d="M657 726H1258L1262 455Q1262 159 1151 74T653 -12Q299 -12 184 102T69 567Q69 1015 115 1133Q172 1277 288 1327T682 1377Q1046 1377 1152 1300T1258 956H996Q989 1090 938 1122T679 1155Q454 1155 394
1099T333 836L332 699L334 524Q334 321 394 266T672 210Q884 210 941 257T999 479L1000 535H657V726Z" />
<glyph unicode="H" glyph-name="H" horiz-adv-x="1398" d="M1278 1365V0H1019V590H379V0H120V1365H379V808H1019V1365H1278Z" />
<glyph unicode="I" glyph-name="I" horiz-adv-x="501" d="M379 1365V0H120V1365H379Z" />
<glyph unicode="J" glyph-name="J" horiz-adv-x="1058" d="M938 1365V423Q938 160 851 74T497 -12Q213 -12 129 71T44 434L47 535H294Q300 459 300 421Q300 385 303 334Q309 210 500 210Q614 210 646 254T679 455V1365H938Z" />
<glyph unicode="K" glyph-name="K" horiz-adv-x="1320" d="M379 1365V809H501L955 1365H1277L726 702L1335 0H1003L503 591H379V0H120V1365H379Z" />
<glyph unicode="L" glyph-name="L" horiz-adv-x="1030" d="M379 1365V232H1019V0H120V1365H379Z" />
<glyph unicode="M" glyph-name="M" horiz-adv-x="1836" d="M1716 1365V0H1457V744Q1457 833 1462 946L1467 1048L1472 1149H1464L1433 1054L1403 959Q1361 831 1338 770L1038 0H802L499 764Q474 827 433 953L402 1048L371 1142H363L368 1043L373 943Q379 827 379
744V0H120V1365H542L786 733Q811 667 852 544L882 449L913 355H922L951 449L981 543Q1018 662 1045 731L1285 1365H1716Z" />
<glyph unicode="N" glyph-name="N" horiz-adv-x="1507" d="M1387 1365V0H948L558 749Q529 805 467 945L423 1043L380 1141H370L374 1051L377 962L379 783V0H120V1365H559L914 673Q961 581 1023 450L1075 339L1127 227H1136L1133 315L1130 403L1128 579V1365H1387Z" />
<glyph unicode="O" glyph-name="O" horiz-adv-x="1328" d="M687 1377Q1059 1377 1166 1254T1273 701Q1273 232 1166 110T645 -12Q273 -12 164 108T55 639Q55 1127 162 1252T687 1377ZM667 1155Q406 1155 362 1088T318 624Q318 330 369 270T673 210Q914 210 962
277T1010 687Q1010 1030 965 1092T667 1155Z" />
<glyph unicode="P" glyph-name="P" horiz-adv-x="1253" d="M120 0V1365H670H738Q1015 1365 1111 1269T1208 896Q1208 622 1116 532T744 442L684 441H379V0H120ZM379 659H674Q850 659 897 699T945 891Q945 1064 906 1105T700 1147H379V659Z" />
<glyph unicode="Q" glyph-name="Q" horiz-adv-x="1370" d="M1389 183L1282 27L1152 117Q1025 -12 668 -12Q277 -12 166 105T55 638Q55 1121 160 1249T664 1377Q1056 1377 1164 1257T1273 701Q1273 392 1246 281L1389 183ZM612 486L720 642L1002 451Q1010 525 1010
550V688V857Q1010 1048 948 1101T667 1155Q406 1155 362 1088T318 624Q318 324 371 267T706 210Q849 210 930 271L612 486Z" />
<glyph unicode="R" glyph-name="R" horiz-adv-x="1320" d="M120 0V1365H793Q1044 1365 1139 1278T1234 963Q1234 756 1187 680T992 575V566Q1219 552 1219 301V0H960V249Q960 460 752 460H379V0H120ZM379 678H751Q884 678 927 725T971 916Q971 1062 934 1104T769
1147H379V678Z" />
<glyph unicode="S" glyph-name="S" horiz-adv-x="1226" d="M1133 967H880Q878 986 878 995Q869 1110 827 1139T629 1169Q445 1169 389 1135T332 992Q332 863 378 837T682 797Q987 780 1076 710T1166 419Q1166 147 1061 68T598 -12Q276 -12 171 66T65 382L64 432H316L317
403Q317 260 367 228T640 196Q814 196 862 233T910 404Q910 503 874 535T716 575L573 584Q249 603 159 674T69 979Q69 1218 177 1297T611 1377Q919 1377 1026 1304T1133 1019V967Z" />
<glyph unicode="T" glyph-name="T" horiz-adv-x="1083" d="M664 1133V0H405V1133H11V1365H1072V1133H664Z" />
<glyph unicode="U" glyph-name="U" horiz-adv-x="1376" d="M998 1365H1257V457Q1257 172 1148 80T700 -12Q343 -12 232 75T121 442V1365H380V442Q380 291 434 251T688 210Q893 210 945 251T998 452V1365Z" />
<glyph unicode="V" glyph-name="V" horiz-adv-x="1261" d="M994 1365H1268L828 0H430L-6 1365H263L519 592Q555 481 626 220H633L659 313Q707 487 741 591L994 1365Z" />
<glyph unicode="W" glyph-name="W" horiz-adv-x="2040" d="M2039 1365L1674 0H1291L1101 700Q1075 795 1040 954L1021 1038H1012L992 953L973 869Q952 784 928 699L733 0H354L0 1365H264L461 616Q479 544 506 417L527 317L547 217H556Q572 283 580 317L604 416Q623
494 657 615L867 1365H1171L1376 615Q1402 519 1427 416L1450 317L1474 217H1482L1504 317L1525 417Q1551 538 1572 617L1774 1365H2039Z" />
<glyph unicode="X" glyph-name="X" horiz-adv-x="1290" d="M1270 1365L860 704L1297 0H993L797 328Q752 404 711 482L683 536L654 589H650L621 535Q569 437 503 328L306 0H-6L442 704L26 1365H335L517 1061Q560 989 598 919L623 871L648 823H652Q669 855 677 871L702
918Q734 980 782 1060L964 1365H1270Z" />
<glyph unicode="Y" glyph-name="Y" horiz-adv-x="1245" d="M1251 1365L745 521V0H486V521L-6 1365H294L500 1005Q517 975 558 894L587 839L615 784H622L651 839L680 894Q717 968 739 1005L947 1365H1251Z" />
<glyph unicode="Z" glyph-name="Z" horiz-adv-x="1181" d="M1127 1365V1148L373 226V218H1136V0H45V221L793 1139V1147H78V1365H1127Z" />
<glyph unicode="[" glyph-name="bracketleft" horiz-adv-x="634" d="M111 1365H531V1174H350V-219H531V-410H111V1365Z" />
<glyph unicode="\" glyph-name="backslash" horiz-adv-x="1243" d="M-108 1365H64L1116 -410H944L-108 1365Z" />
<glyph unicode="]" glyph-name="bracketright" horiz-adv-x="627" d="M516 -410H103V-219H277V1174H103V1365H516V-410Z" />
<glyph unicode="^" glyph-name="asciicircum" horiz-adv-x="978" d="M240 705H0L339 1372H639L978 705H737L489 1190L240 705Z" />
<glyph unicode="_" glyph-name="underscore" horiz-adv-x="1024" d="M0 -108H1024V-313H0V-108Z" />
<glyph unicode="`" glyph-name="grave" horiz-adv-x="1024" d="M322 1368L647 1155L597 1060L239 1214L322 1368Z" />
<glyph unicode="a" glyph-name="a" horiz-adv-x="1069" d="M351 679H117Q117 851 197 909T514 967Q772 967 863 896T954 625V0H725L736 131L730 132Q664 -11 425 -11Q78 -11 78 284Q78 582 433 582Q670 582 721 473H725V628Q725 740 686 776T526 813Q351 813 351
679ZM504 428Q310 428 310 294Q310 201 350 172T518 143Q727 143 727 284Q727 428 504 428Z" />
<glyph unicode="b" glyph-name="b" horiz-adv-x="1083" d="M113 0V1365H342V819L347 817Q406 968 646 968Q852 968 928 868T1005 495Q1005 198 928 94T630 -11Q407 -11 337 151H332L342 0H113ZM568 787Q345 787 345 510Q345 293 383 232T555 170Q695 170 734 226T773
485Q773 673 735 730T568 787Z" />
<glyph unicode="c" glyph-name="c" horiz-adv-x="1005" d="M722 365H950V332L936 187Q894 -11 526 -11Q256 -11 167 86T78 479Q78 767 167 867T513 967Q761 967 849 895T937 619H710Q710 786 517 786Q380 786 345 733T310 473Q310 273 348 222T537 170Q655 170
688 205T722 365Z" />
<glyph unicode="d" glyph-name="d" horiz-adv-x="1076" d="M964 1365V0H741L749 154L745 155Q678 -12 453 -12Q226 -12 153 91T79 512Q79 768 158 867T439 967Q673 967 731 819L735 820V1365H964ZM515 786Q387 786 349 732T311 497Q311 289 349 229T519 169Q657
169 695 228T734 500Q734 676 692 731T515 786Z" />
<glyph unicode="e" glyph-name="e" horiz-adv-x="1037" d="M729 306H959V269Q959 -11 539 -11Q254 -11 166 86T78 497Q78 776 170 872T529 968Q785 968 872 875T959 507V437H312Q310 405 310 395Q310 254 353 207T527 160Q653 160 691 187T729 306ZM731 577L730
615Q730 729 691 763T519 797Q391 797 353 756T314 577H731Z" />
<glyph unicode="f" glyph-name="f" horiz-adv-x="640" d="M160 0V782H25V956H160V1058Q160 1240 238 1309T523 1379Q558 1379 620 1376V1197Q573 1208 540 1208Q389 1208 389 1058V956H627V782H389V0H160Z" />
<glyph unicode="g" glyph-name="g" horiz-adv-x="1080" d="M968 956V-18Q968 -252 874 -339T525 -426Q279 -426 196 -360T113 -99H335Q335 -192 370 -218T526 -245Q739 -245 739 -69V146L734 147Q673 -6 454 -6Q237 -6 158 99T78 491Q78 761 157 864T446 967Q674
967 745 798H750L739 956H968ZM517 786Q385 786 348 733T310 489Q310 287 347 231T520 175Q655 175 695 232T735 487Q735 676 695 731T517 786Z" />
<glyph unicode="h" glyph-name="h" horiz-adv-x="1088" d="M342 1365V798L347 797Q411 967 641 967Q976 967 976 650V0H747V587V618Q747 786 576 786Q342 786 342 543V0H113V1365H342Z" />
<glyph unicode="i" glyph-name="i" horiz-adv-x="454" d="M342 1365V1174H113V1365H342ZM342 956V0H113V956H342Z" />
<glyph unicode="j" glyph-name="j" horiz-adv-x="453" d="M339 1365V1174H110V1365H339ZM338 956V-41Q338 -328 83 -328Q47 -328 4 -320V-157H27Q109 -157 109 -22V956H338Z" />
<glyph unicode="k" glyph-name="k" horiz-adv-x="984" d="M342 1365V584H401L659 956H925L592 506L993 0H709L398 424H342V0H113V1365H342Z" />
<glyph unicode="l" glyph-name="l" horiz-adv-x="454" d="M342 1365V0H113V1365H342Z" />
<glyph unicode="m" glyph-name="m" horiz-adv-x="1673" d="M113 956H342L336 809L341 808Q411 967 633 967Q892 967 921 790H925Q992 967 1220 967Q1552 967 1552 633V0H1323V583Q1323 786 1156 786Q947 786 947 559V0H718V592Q718 711 687 748T553 786Q342 786
342 554V0H113V956Z" />
<glyph unicode="n" glyph-name="n" horiz-adv-x="1086" d="M113 956H340L331 795L336 794Q403 967 636 967Q975 967 975 651V0H746V576V612L741 679Q725 786 573 786Q342 786 342 567V0H113V956Z" />
<glyph unicode="o" glyph-name="o" horiz-adv-x="1060" d="M533 967Q810 967 896 879T982 505Q982 187 898 88T544 -11Q251 -11 165 81T78 486Q78 787 163 877T533 967ZM531 786Q388 786 349 735T310 494Q310 278 347 224T532 170Q675 170 712 227T750 501Q750
684 711 735T531 786Z" />
<glyph unicode="p" glyph-name="p" horiz-adv-x="1095" d="M113 956H346L337 814L342 813Q425 968 651 968Q860 968 938 865T1017 487Q1017 201 939 95T650 -11Q425 -11 356 139H352V-410H113V956ZM564 787Q433 787 393 728T353 478Q353 292 396 231T571 170Q705
170 745 228T785 477Q785 673 745 730T564 787Z" />
<glyph unicode="q" glyph-name="q" horiz-adv-x="1081" d="M969 956V-410H740V140L736 141Q673 -12 442 -12Q231 -12 155 94T78 495Q78 766 156 866T446 967Q663 967 737 813L743 815L740 956H969ZM515 786Q390 786 350 730T310 496Q310 283 347 226T525 169Q652
169 694 228T737 463Q737 667 697 726T515 786Z" />
<glyph unicode="r" glyph-name="r" horiz-adv-x="863" d="M119 956H348L334 822L339 821Q421 971 597 971Q849 971 849 653V586H633Q637 625 637 637Q637 790 518 790Q348 790 348 563V0H119V956Z" />
<glyph unicode="s" glyph-name="s" horiz-adv-x="1013" d="M911 693H687Q685 705 684 711Q677 780 645 797T487 814Q308 814 308 698Q308 619 339 604T553 580Q798 568 872 515T946 298Q946 123 848 56T494 -12Q249 -12 159 49T69 277V301H307Q302 281 301 269Q287
142 497 142Q714 142 714 268Q714 389 578 389Q271 389 174 447T76 688Q76 852 165 910T507 968Q746 968 828 912T911 693Z" />
<glyph unicode="t" glyph-name="t" horiz-adv-x="782" d="M730 956V782H362V302Q362 169 463 169Q574 169 574 330V368H769V320Q769 254 765 207Q746 -12 439 -12Q133 -12 133 269V782H9V956H133V1170H362V956H730Z" />
<glyph unicode="u" glyph-name="u" horiz-adv-x="1081" d="M962 956V0H733L746 164L742 165Q675 -11 434 -11Q109 -11 109 314V956H338V369Q338 247 372 209T513 170Q733 170 733 434V956H962Z" />
<glyph unicode="v" glyph-name="v" horiz-adv-x="900" d="M910 956L636 0H278L-10 956H233L359 515Q385 423 407 337L430 248L453 159H458L479 248L500 336Q524 436 545 514L663 956H910Z" />
<glyph unicode="w" glyph-name="w" horiz-adv-x="1455" d="M1452 956L1238 0H900L804 428Q779 539 767 597L750 681L733 765H726L709 681L692 596Q681 540 656 428L560 0H217L4 956H235L327 513Q344 430 361 335L377 246L394 157H398L418 246L437 335Q452 402
478 512L582 956H874L978 512Q1007 387 1019 335L1038 246L1057 157H1062L1079 246L1095 335Q1112 427 1130 513L1223 956H1452Z" />
<glyph unicode="x" glyph-name="x" horiz-adv-x="919" d="M895 956L617 506L926 0H652L460 347L273 0H-8L305 503L29 956H302L460 653L622 956H895Z" />
<glyph unicode="y" glyph-name="y" horiz-adv-x="890" d="M900 956L649 -60Q596 -276 518 -350T266 -425Q227 -425 185 -421V-252Q215 -254 235 -254Q381 -254 420 0H303L-10 956H236L356 551L416 348Q421 328 444 246L473 145H478L499 246Q515 324 520 348L567
551L659 956H900Z" />
<glyph unicode="z" glyph-name="z" horiz-adv-x="868" d="M82 956H827V759L315 174H827V0H42V201L549 782H82V956Z" />
<glyph unicode="{" glyph-name="braceleft" horiz-adv-x="783" d="M336 477Q459 416 459 232V-57Q459 -233 633 -233H650V-410H495Q247 -410 247 -110V213Q247 359 133 388V567Q247 595 247 742V1065Q247 1365 495 1365H650V1188H628Q459 1188 459 1012V723Q459
539 336 477Z" />
<glyph unicode="|" glyph-name="bar" horiz-adv-x="229" d="M0 1365H229V-341H0V1365Z" />
<glyph unicode="}" glyph-name="braceright" horiz-adv-x="784" d="M447 477Q324 539 324 723V1012Q324 1188 159 1188H134V1365H288Q536 1365 536 1065V742Q536 595 651 567V388Q536 359 536 213V-110Q536 -410 288 -410H133V-233Q250 -233 287 -199T324 -57V232Q324
416 447 477Z" />
<glyph unicode="~" glyph-name="asciitilde" horiz-adv-x="993" d="M128 1161L0 1245Q10 1266 15 1277Q124 1514 301 1514Q372 1514 519 1457Q653 1404 705 1404Q793 1404 861 1518L993 1441Q868 1182 680 1182Q616 1182 480 1234L379 1272Q327 1292 281 1292Q197
1292 128 1161Z" />
</font>
</defs>
</svg>
